Game Of Thrones S05E01 1080p WEB-DL DD5.1 H264-NTb

Main Poster
Game Of Thrones S05E01 1080p WEB-DL DD5.1 H264-NTb

Size: 1.92 GiB | Duration: 00:52:09 | Container: MKV
Audio: AC3 | 384 Kbps | 6 Channels
Video: x264 | 4792 Kbps | 1912×1072 | 23.976 FPS
Langauge: English
Subtitles: English
Genre: Adventure | Drama | Fantasy
iMDB

Plot
Several noble families fight for control of the mythical land of Westeros.

Read More »

Rasam (2015) 1CD DVDRip x264 Esubs-TeamTMR

Main Poster
Rasam (2015) 1CD DVDRip x264 Esubs-TeamTMR

Size: 699 MiB | Duration: 1:47:03 | Container: MP4
Audio: AAC | 112 Kbps | 6 Channels
Video: x264 | 798 Kbps | 712×304 | 23.976 FPS
Langauge: Malayalam
Subtitles: English
Genre: Drama
iMDB

Plot
The film takes place in Doha where Shekar Menon, a business tycoon arranges his daughter’s wedding to be done in a traditional Kerala style feast.

Read More »

Ekalavya (2015) 1CD DVDRip x264 Esubs-TeamTMR

Main Poster
Ekalavya (2015) 1CD DVDRip x264 Esubs-TeamTMR

Size: 699 MiB | Duration: 2:21:20 | Container: MP4
Audio: AAC | 112 Kbps | 6 Channels
Video: x264 | 577 Kbps | 712×304 | 23.976 FPS
Langauge: Malayalam
Subtitles: English
Genre: Drama
iMDB

Plot
Balaraju, the head of his village, lives with his wife Baby along with his two sons Chandrasekhar Rao and Bangari and two daughters. He helps Chandrasekhar become a doctor and builds a local hospital.

Read More »

Hooligans at War North vs South 2015 DVDRip XviD-EVO

Hooligans at War North vs South 2015 DVDRip XviD-EVO

ssl.php

Genres: Crime | Drama | War

imdb

General::::::::::
Format : AVI
File size : 1.05 GiB
Duration : 1h 22mn
Overall bit rate : 1 813 Kbps
Video::::::::::
Bit rate : 1 681 Kbps
Width : 720 pixels
Height : 400 pixels
Audio::::::::::
Codec ID/Hint : MP3
Duration : 1h 22mn
Bit rate mode : Constant
Bit rate : 128 Kbps
Channel(s) : 2 channels
Sampling rate : 48.0 KHz

 
Hooligans.at.War.North.vs.South.2015.DVDRip.XviD-EVO

Read More »

Ride PAL XBOX360-COMPLEX

Main Poster
Ride PAL XBOX360-COMPLEX

Publisher: Bandai Namco Games | Developer: Milestone S.r.l | Retail Date: May 27, 2015
Platform: XBOX 360 | Region: PAL | Genre: Racing
Language: English | Size: 7.29 GiB

Summary
Ride is the complete motorcycle racing simulator, offering an intense and incredibly deep racing experience with more than 100 bikes from the world’s most popular manufacturers, along with a diverse selection of circuits that range from city, country, and historic tracks from the world of motorcycling.

Read More »

Powers US S01E02 720p WEBRiP x264-QCF

Powers US S01E02 720p WEBRiP x264-QCF

powers-650x701

TV Series
Genres: Crime | Drama | Sci-Fi

imdb

Team QCF
 Where Quality always Comes First
 
 RELEASE iNFORMATiON
 powers.us.s01e02.720p.webrip.x264-qcf
 Release Date: 2015-04-12
 Retail Date: Runtime: --mn
 Size: 793.473 MB
 Video: 1280x720 (1.77)
 Audio: aac
 Language: ENG 

General::::::::
 
 Complete name : Powers.US.S01E02.720p.WEBRiP.x264-QCF.mkv
 File size : 777 MiB
 Duration : 45mn 35s
 Overall bit rate : 2 382 Kbps
 
 Video:::::::::
 Format : AVC
 Format settings, CABAC : Yes
 Codec ID : V_MPEG4/ISO/AVC
 Duration : 45mn 35s
 Width : 1 280 pixels
 Height : 720 pixels
 Display aspect ratio : 16:9
 Frame rate : 23.976 fps
 Bit depth : 8 bits
 
 Audio::::::::
 Format : AAC
 Format/Info : Advanced Audio Codec
 Codec ID : A_AAC
 Channel(s) : 2 channels
 Sampling rate : 48.0 KHz
 Delay relative to video : 265ms
 Language : English

Read More »

Game of Thrones S05E01 720p HDTV x264-RLSM

Game of Thrones S05E01 720p HDTV x264-RLSM

Game of Thrones S05E01 720p HDTV x264-RLSM

Game of Thrones S05E01 720p HDTV x264-RLSM

 

High Quality

File size: 362 MiB

General:::::
Complete name : Game of Thrones S05E01 720p HDTV x264.RLSM.mkv
File size : 362 MiB
Duration : 54mn 22s
Overall bit rate : 932 Kbps

Video:::::
Format : AVC
Nominal bit rate : 800 Kbps
Width : 1 280 pixels
Height : 720 pixels
Frame rate : 23.976 fps
Bit depth : 8 bits

Audio:::::
Format : AAC
Codec ID : A_AAC
Channel(s) : 2 channels
Sampling rate : 48.0 KHz / 24.0 KHz
Language : English
Default : Yes
Forced : No

Read More »

Game of Thrones S05E01 720p HDTV x264-IMMERSE

Game of Thrones S05E01 720p HDTV x264-IMMERSE

Game-of-Thrones-S04

High Quality

File size : 1 013 MiB

General
Complete name : Game.of.Thrones.S05E01.720p.HDTV.x264-IMMERSE.mkv
File size : 1 013 MiB
Duration : 54mn 22s
Overall bit rate : 2 606 Kbps
Writing application : x264.exe

Video
Format : AVC
Bit rate : 2 170 Kbps
Width : 1 280 pixels
Height : 720 pixels
Frame rate : 23.976 fps
Bit depth : 8 bits
Stream size : 844 MiB (83%)
Language : English
Default : Yes
Forced : No

Audio
Format : AC-3
Bit rate : 384 Kbps
Channel(s) : 6 channel
Sampling rate : 48.0 KHz
Bit depth : 16 bits
Stream size : 149 MiB (15%)

Read More »

Download Free Premium Joomla Templates • FREE High-quality Joomla! Designs BIGtheme.net